#TITLE:Awaken;
#SUBTITLE:By young_editer@hotmail.com;
#ARTIST:Dethklok;
#TITLETRANSLIT:;
#SUBTITLETRANSLIT:;
#ARTISTTRANSLIT:;
#CREDIT:;
#BANNER:;
#BACKGROUND:;
#LYRICSPATH:;
#CDTITLE:Nepex-Chart.bmp;
#MUSIC:03 Awaken.mp3;
#OFFSET:0.683;
#SAMPLESTART:18.140;
#SAMPLELENGTH:12.000;
#SELECTABLE:YES;
#BPMS:0.000=190.010,352.000=190.020;
#STOPS:100.000=0.158
,100.500=0.158
,101.000=0.158
,101.500=0.158
,114.000=0.158
,114.500=0.158
,115.000=0.158
,115.500=0.158
,492.500=0.316
,493.000=0.474
,493.500=0.158
,494.000=0.158
,494.500=0.158
,495.000=0.158
,507.500=0.160
,508.000=0.160
,508.500=0.160
,509.000=0.160
,521.500=0.158
,522.000=0.158
,522.500=0.158
,523.000=0.158
,535.500=0.158
,536.000=0.158
,536.500=0.158
,537.000=0.158
,549.500=0.158
,550.000=0.158
,550.500=0.158
,551.000=0.158
;
#BGCHANGES:;

//---------------dance-single - ----------------
#NOTES:
     dance-single:
     :
     Medium:
     11:
     1.000,1.000,0.322,0.639,0.897:
0000
0000
0000
0000
,
0100
0010
0001
0001
0100
0010
1000
1000
,
0001
0100
0010
0010
0100
0010
1000
1000
,
0010
0100
0001
0001
0010
0100
1000
1000
,
0001
0100
0010
0010
1000
0100
0010
0010
,
0001
0100
0001
0001
0010
0100
0010
0001
,
0000
0000
1000
1000
0100
0010
0100
1000
,
0000
0000
0001
0001
0010
0100
0010
0001
,
0000
0000
1000
1000
0100
0010
0100
1000
,
0000
0000
0010
1000
0001
0001
0100
0010
,
1000
1000
0001
1000
0010
0010
0100
0010
,
0100
0100
0001
0100
0001
0001
0010
0100
,
0010
0010
0001
0100
0010
0010
1000
0100
,
1000
1000
0001
0001
0010
0100
0010
0001
,
0000
0000
1000
1000
0100
0010
0100
1000
,
0000
0000
0001
0001
0010
0100
0010
0001
,
0000
0000
0001
0010
0100
1000
0100
0010
,
0001
1000
0010
0100
0010
1000
0100
0010
0100
0010
0001
0100
0010
0001
0010
0100
,
0010
1000
0010
0100
0010
1000
0010
0001
0010
1000
0010
0100
0001
0100
0010
1000
,
0010
0100
0010
1000
0100
0001
0100
1000
0100
0001
0100
0010
1000
0010
0001
0010
,
1000
0010
0001
0100
0010
0001
0010
0100
0010
0001
0010
0100
0010
0001
0010
1000
,
0010
0100
0001
0100
1000
0100
0001
0100
0010
1000
0010
1000
0010
1000
0010
0001
,
0010
0001
0010
0100
0010
0100
0010
1000
0010
0100
0001
0010
0100
1000
0100
0010
,
0001
1000
0100
0010
0001
0010
0100
1000
0001
0010
0100
1000
0100
0010
0001
1000
,
0100
0010
0001
0100
0010
0001
0010
0100
1000
0100
0010
0001
1000
0100
0010
0001
,
0110
0000
0011
0000
1100
0000
0110
0000
2002
0000
0000
0000
3003
0000
2200
3300
,
0202
0000
0000
0000
0303
0000
0220
0330
2002
3103
0010
0001
0010
0001
0100
0010
,
0001
0010
0100
0010
1000
0100
0010
0000
1000
0100
0010
1000
0010
0001
0100
0010
,
2000
0000
0000
3000
1100
1010
0011
0110
,
2002
0000
0000
0000
3003
0000
0022
0033
0220
0000
0000
0000
0330
0000
0202
0303
,
2200
0000
0000
3300
0001
0000
1000
0010
0100
0010
1000
0100
0010
0100
0010
0001
,
0100
0010
0001
0010
1000
0100
0020
0000
0000
0000
0000
0000
0000
0000
0030
0000
,
0100
0002
0000
0000
0000
0000
0000
0003
0000
0200
0000
0000
0000
0000
0000
0000
0300
0000
0020
0000
0000
0000
0030
0000
,
2000
0000
0000
0000
0000
0000
0000
0000
0000
0000
0000
0000
0000
0000
0000
0000
0000
0000
0000
3000
0000
0000
0000
0000
,
0100
0020
0000
0000
0000
0000
0000
0030
0000
2000
0000
0000
0000
0000
0000
0000
3000
0000
0002
0000
0000
0000
0000
0003
,
0200
0000
0000
0000
0000
0000
0000
0300
,
0010
0100
0010
1000
0010
0100
0010
1000
0001
0100
0001
0010
0001
0100
0010
1000
,
0010
0100
0010
1000
0010
0001
0010
0100
0010
0001
0010
0100
0001
0010
0100
0010
,
0001
0100
0010
0001
0010
1000
0010
0100
0010
1000
0100
0010
0100
1000
0010
0100
,
1000
0100
0010
1000
0010
0100
0010
0001
1020
0000
0000
0030
2001
0000
0000
3000
,
0102
1000
0010
0010
0100
0010
1000
1000
,
0010
0100
0010
0010
0100
0010
1000
1000
,
0013
0100
0001
0001
0010
0100
1000
1000
,
0001
0100
0010
0010
1000
0100
0010
0010
,
0001
0100
0001
0001
1000
0010
0100
0100
,
1000
0010
0001
0001
0100
0010
1000
1000
,
0001
0100
0010
0010
0100
0010
1000
1000
,
0010
0100
0001
0001
0010
0100
1000
1000
,
0001
0100
1000
1000
0100
0010
0100
1000
,
0000
0000
0010
0010
0100
1000
0100
0010
,
0000
0000
0100
0100
0010
0001
0010
0100
,
0000
0000
0100
0100
0010
0001
0010
0100
,
0000
0000
0010
0010
0100
1000
0100
0010
,
0000
0000
1000
1000
0100
0010
0100
1000
,
0000
0000
0001
0001
0010
0100
0010
0001
,
0000
0000
0010
0010
0100
1000
0100
0010
,
0000
0000
0100
0100
0010
0001
0010
0100
,
0000
0000
1000
1000
0100
0010
0100
1000
,
0000
0000
0001
0001
0010
0100
0010
0001
,
0000
0000
0100
0100
0010
0001
0010
0100
,
0000
0000
1000
1000
0100
0010
0100
1000
,
0000
0000
0001
0001
0010
0100
0010
0001
,
0000
0000
1000
1000
0100
0010
0100
1000
,
0000
0000
0010
0010
0100
1000
0100
0010
,
0001
0000
2000
0000
0000
0000
0000
0000
0000
0000
0000
0000
0000
0000
3000
0000
0000
0000
0020
0000
0000
0000
0000
0000
0000
0000
0000
0000
0000
0000
0000
0000
0000
0030
0000
0000
0200
0000
0000
0000
0000
0000
0000
0000
0000
0300
0000
0000
,
0002
0000
0000
0000
0000
0003
2000
0000
0000
0000
0000
3000
0020
0000
0000
0030
,
0200
0000
0000
0000
0000
0000
0000
0000
0000
0000
0000
0000
0000
0000
0000
0300
0000
0000
1000
0000
0002
0000
0000
0000
0000
0000
0000
0000
0000
0000
0000
0000
0000
0000
0000
0000
0000
0000
0000
0000
0000
0000
0000
0000
0000
0000
0000
0000
,
0000
0000
0000
0000
0000
0000
0000
0000
0000
0000
0000
0003
,
0020
0000
0000
0000
0000
0030
0200
0000
0000
0000
0000
0300
0002
0000
0000
0003
,
1000
0000
0000
0000
0200
0000
0000
0000
0000
0000
0000
0000
0000
0000
0300
0000
0000
0000
0020
0000
0000
0000
0000
0000
0000
0000
0000
0000
0000
0000
0000
0000
0000
0030
0000
0000
0200
0000
0000
0000
0000
0000
0000
0000
0000
0300
0000
0000
,
0002
0000
0000
0000
0000
0000
0000
0000
0000
0000
0000
0000
0000
0000
0000
0003
0000
0000
1000
0000
0000
0000
0020
0000
0000
0000
0000
0000
0000
0000
0000
0000
0000
0000
0000
0000
0000
0000
0000
0000
0000
0000
0000
0000
0000
0000
0000
0000
,
0000
0000
0000
0000
,
0030
0000
0000
0000
0000
0000
0000
0000
0000
0000
0000
0000
1000
0000
0002
0000
0000
0000
0000
0000
0000
0000
0000
0000
0000
0000
0000
0000
0000
0000
0003
0000
0000
0000
0000
0000
0100
0000
0000
0010
0000
0000
1000
0000
0000
0010
0000
0000
,
0200
0300
0000
0000
,
0001
0000
0000
0000
0000
0000
0000
0000
0200
0000
0000
0000
0000
0000
0300
0000
0000
0000
0010
0000
0000
0000
0000
0000
1000
0000
0000
0001
0000
0000
0100
0000
0000
0001
0000
0000
1000
0000
0000
0010
0000
0000
0100
0000
0000
0010
0000
0000
,
1000
0010
0100
0001
0100
0010
1000
0001
0100
0010
1000
0100
0010
0001
0100
0000
,
0000
0000
0000
0000
0000
0000
0000
0000
0100
0001
0000
0000
0010
0000
0000
0000
0001
0000
0000
0000
1000
0000
0000
0000
0010
0000
0000
0000
0100
0000
0010
0000
,
0200
0000
0000
0000
0300
0000
0000
0000
0001
0000
1000
0000
0001
0000
0000
0000
0100
0000
0000
0000
0020
0000
0000
0000
0030
0000
0000
0000
1000
0001
0000
0000
,
0100
0000
0000
0000
0000
0000
0010
0000
0000
1000
0000
0000
0010
0000
0000
1000
0000
0000
0020
0000
0000
0030
0000
0000
0000
0000
0000
0000
0000
0000
0001
0000
1000
0000
0000
0000
0010
0000
0000
0100
0000
0000
0020
0000
0000
0030
0000
0000
,
0000
0000
1000
0100
0010
0001
0020
0030
0000
0000
0001
0010
0100
1000
0200
0300
,
2000
0000
0000
0000
0000
0000
0000
0000
0000
0000
0000
3000
0001
0000
0100
0000
,
0010
0000
1000
0000
0001
0000
0010
0000
0100
0000
1000
0000
0001
0000
0100
0010
,
0100
0010
1000
0001
0100
0010
1000
0001
,
0010
0000
0100
0000
1000
0000
0001
0000
0200
0000
0000
0000
0000
0000
0000
0300
,
0002
0000
0003
1000
0010
1000
0010
0000
0100
0000
0001
0000
0200
0300
0000
0000
,
2000
0000
0000
0000
0000
0000
3000
0000
0000
0001
0000
0000
0100
0000
0000
0001
0000
0000
0100
0000
0000
0000
0000
0000
0010
0000
0000
0000
1000
0000
0000
0000
0000
0000
0000
0000
0020
0000
0000
0030
0000
0000
0000
0000
0000
0000
0000
0000
,
2000
0000
3000
0000
0010
0100
0010
1000
0010
0100
0001
0010
0100
1000
0100
0010
,
0100
0000
0010
0001
0100
0010
0001
0010
1000
0010
0100
0001
0010
0100
1000
0010
,
0101
0101
1000
1000
0001
0100
1000
1000
,
0100
0010
0100
0100
0001
0100
0010
0010
,
1000
0100
0001
0001
0100
0010
0001
0001
,
1000
0010
0100
0100
0010
1000
0001
0001
,
0100
0010
1000
1000
0100
0010
0001
0001
,
0100
0010
1000
1000
0010
0100
1000
1000
,
0100
0001
0100
0100
0010
1000
0001
0001
,
0100
0010
1000
1000
0100
1000
0010
0010
,
1000
0001
0100
0100
0010
0001
0010
0100
,
0000
0000
0100
0100
0010
0001
0010
0100
,
0000
0000
0010
0010
0100
1000
0100
0010
,
0000
0000
1000
1000
0100
0010
0100
1000
,
0100
0001
1000
1000
0001
0100
1000
1000
,
0100
0010
0100
0100
0001
0100
0010
0010
,
1000
0100
0001
0001
0100
0010
0001
0001
,
1000
0010
0100
0100
0010
1000
0001
0001
,
0100
0010
1000
1000
0100
0010
0100
1000
,
0000
0000
0100
0100
0010
0001
0010
0100
,
0000
0000
0001
0001
0010
0100
0010
0001
,
0000
0000
0010
0010
0100
1000
0100
0010
,
0001
0100
0001
0100
0010
1000
0010
0100
0010
1000
0010
0100
0010
1000
0100
0001
,
0100
0001
0010
0001
0100
0001
0010
0001
0100
0010
1000
0010
0100
0010
1000
0010
,
0100
0010
1000
0010
0100
0001
0100
0001
0100
0010
0100
0010
1000
0010
0100
0010
,
1000
0100
0001
0100
1000
0100
0001
0100
0010
0001
0100
0010
0001
0010
1000
0010
,
0100
1000
0100
0010
1000
0010
0100
1000
0100
0010
1000
0010
0100
1000
0100
0010
,
0001
0010
0100
0001
0010
0100
0001
0100
0010
0001
0100
0010
1000
0100
0010
1000
,
0010
1000
0010
0001
0100
1000
0100
0010
0001
0010
0100
0001
0100
0010
0001
0010
,
0100
0100
0100
0100
0100
0100
0100
0100
0100
0100
0100
0100
0100
0010
1000
0010
,
0100
0010
1000
0100
0010
0100
0010
0001
0100
0010
0001
0010
0100
0010
1000
0100
,
0001
0100
0010
0001
1000
0100
0001
0100
0010
0001
0100
0010
0001
0010
1000
0010
,
0100
0010
1000
0100
0001
0100
1000
0100
0010
0001
0100
0010
0001
0010
0100
0010
,
1000
0100
0010
0100
1000
0100
0010
0100
1000
0010
0100
1000
0100
0010
0100
1000
,
0100
0010
1000
0010
0001
0010
0100
0001
0010
0100
0010
0001
1000
0100
0010
0100
,
1000
0001
0010
0100
0010
0001
0010
1000
0010
0001
0100
1000
0100
0010
1000
0010
,
0100
1000
0100
0010
1000
0010
0100
1000
0100
0010
1000
0010
0001
0010
0100
0001
,
1010
0101
1001
1010
0101
0011
0110
2002
,
0000
0000
0000
3003
0220
0330
0202
0000
0000
0000
0000
0303
2020
3030
2002
3103
,
0010
0001
0010
0001
0100
0010
0001
0010
0100
0010
1000
0100
0010
0000
1000
0100
,
0010
1000
0010
0001
0100
0010
2000
0000
0000
0000
0000
0000
3000
0000
1100
0000
,
1010
0000
0011
0000
0110
0000
2002
0000
0000
0000
3003
0000
0022
0033
0220
0000
,
0000
0000
0330
0000
0202
0303
1000
0000
0100
0000
1000
0000
0100
0000
0010
0000
,
0001
0010
0001
1000
0010
1000
0010
0100
,
0001
0200
0300
1001
0101
1010
1001
0220
,
0000
0000
0000
0000
0000
0000
0330
0000
2002
0000
3003
0000
2020
0000
0000
0000
0000
0000
0000
0000
0000
0000
3030
0000
0022
0000
0033
0000
0100
1000
0000
0000
,
0001
0100
0010
1000
0100
0010
0100
1000
,
0100
0010
0001
1000
0100
0010
0001
1010
,
1001
0000
0110
0000
0011
0000
2002
0000
0000
0000
0000
3003
2020
3030
2200
0000
,
0000
0000
0000
0000
0000
0000
0000
0000
0000
3300
0000
0000
0022
0000
0000
0033
0000
0000
0010
0000
0100
0000
0000
0000
0010
0000
0100
0000
0000
0000
0010
0000
0100
0000
0000
0000
0010
0000
0100
0000
0000
0000
0010
0000
0100
0000
0000
0000
,
0010
0100
0000
0010
0100
0000
0010
0100
0000
0010
0100
0000
0010
0100
0000
0010
0100
0000
0010
0100
0000
0010
0200
0000
,
0000
0000
0000
0000
0000
0300
0000
0000
0000
1001
0000
0000
1100
0000
0000
0101
0000
0000
1010
0000
0000
2002
0000
0000
,
0000
0000
0000
3003
2220
3330
0222
0000
0000
0000
0000
0333
2022
3033
2202
0000
,
0000
3303
0010
0100
0010
1000
0001
0100
0001
0100
0010
0001
0010
1000
0010
0100
,
1000
0000
0000
0100
0000
0000
0010
0000
0000
1000
0000
0000
0010
0000
0000
0100
0000
0000
0001
0000
0000
0100
0000
0000
0010
0000
0000
0001
0000
0000
0010
0000
0000
0100
0000
0000
0010
0000
0000
1000
0000
0000
0100
0000
0020
0000
0000
0000
,
0000
0000
0000
0030
0000
0000
0200
0000
0000
0000
0000
0000
0300
0000
0000
2000
0000
0000
0000
3000
0000
0002
0000
0000
,
0000
0000
0000
0000
0000
0000
0000
0000
0000
0000
0000
0000
0000
0000
0000
0000
0000
0000
0003
0000
0000
0100
0020
0000
,
0000
0000
0000
0030
0000
0000
2000
0000
0000
0000
0000
0000
3000
0000
0000
0002
0000
0000
0000
0003
0000
0200
0000
0000
,
0000
0000
0000
0000
0000
0000
0000
0000
0000
0000
0000
0000
0000
0000
0000
0300
0000
0000
0000
0000
0000
0010
2000
0000
,
0000
0000
0000
0000
3000
0000
0002
0000
0000
0000
0000
0000
0000
0003
0000
0200
0000
0000
0300
0000
0000
0020
0000
0000
,
0000
0000
0000
0000
0000
0000
0000
0000
0000
0000
0000
0000
0000
0000
0000
0000
0000
0000
0030
0000
0000
0100
0002
0000
,
0000
0000
0000
0000
0003
0000
0200
0000
0000
0000
0000
0000
0300
0000
0000
0020
0000
0000
0030
0000
0000
0200
0000
0000
,
0000
0000
0000
0000
0000
0000
0000
0000
0000
0000
0300
0000
0000
0000
0100
0010
,
0001
0010
0100
0010
0001
1000
0010
0100
0010
0001
0010
0100
0010
1000
0010
0001
,
0010
0100
0001
0100
0010
1000
0010
0100
0001
0100
0010
0001
0010
1000
0010
0100
,
0001
0010
0100
1000
0100
0001
0100
0010
0001
0100
0010
0001
0010
1000
0010
0100
,
0001
0010
0100
1000
0100
0010
0100
1000
0010
0100
1000
0100
0010
1000
0010
0001
,
0010
0100
0001
0010
0100
0010
0001
0100
0010
1000
0010
0100
1000
0100
0010
1000
,
0010
0100
1000
0100
0010
0100
1000
0100
0001
0100
1000
0100
0010
1000
0010
0001
,
0010
0100
0010
0001
0010
0100
0010
0001
0010
0100
0010
1000
0010
0100
0001
1000
,
0001
1000
0010
0100
0010
0100
0010
0100
0010
0100
0010
1000
0010
1000
0010
0000
,
0100
0001
0001
0010
0100
1000
1000
0001
,
0100
0010
0010
1000
0100
0010
0010
0001
,
0100
0001
0001
1000
0010
0100
0100
2022
,
0000
3033
0000
2222
0000
0000
0000
0000
,
0000
0000
0000
0000
,
0000
0000
0000
0000
,
0000
0000
0000
0000
,
0000
0000
0000
0000
,
0000
0000
0000
0000
,
0000
0000
0000
0000
0000
0000
0000
3333
;

//---------------dance-single - Copied from----------------
#NOTES:
     dance-single:
     Copied from:
     Hard:
     12:
     1.000,1.000,1.000,0.639,1.000:
0000
0000
0000
0000
,
1100
1010
0001
0001
0100
0010
1000
1000
,
0011
0101
0010
0010
0100
0010
1000
1000
,
0011
0110
0001
0001
0010
0100
1000
1000
,
0101
1100
0010
0010
1000
0100
0010
0010
,
1001
1100
0001
0001
0010
0100
0010
0001
,
0110
0101
1000
1000
0100
0010
0100
1000
,
0110
1010
0001
0001
0010
0100
0010
0001
,
1010
0011
1000
1000
0100
0010
0100
1000
,
0110
0101
0010
1000
0001
0001
0100
0010
,
1100
1100
0001
1000
0010
0010
0100
0010
,
1100
1100
0001
0100
0001
0001
0010
0100
,
0011
0011
1000
0100
0010
0010
1000
0100
,
1010
1010
0001
0001
0010
0100
0010
0001
,
0110
0101
1000
1000
0100
0010
0100
1000
,
0011
1010
0001
0001
0010
0100
0010
0001
,
1100
1010
0001
0010
0100
1000
0100
0010
,
0001
1000
0010
0100
0010
1000
0100
0010
0100
0010
0001
0100
0010
0001
0010
0100
,
0010
1000
0010
0100
0010
1000
0010
0001
0010
1000
0010
0100
0001
0100
0010
1000
,
0010
0100
0010
1000
0100
0001
0100
1000
0100
0001
0100
0010
1000
0010
0001
0010
,
1000
0010
0001
0100
0010
0001
0010
0100
0010
0001
0010
0100
0010
0001
0010
1000
,
0010
0100
0001
0100
1000
0100
0001
0100
0010
1000
0010
1000
0010
1000
0010
0001
,
0010
0001
0010
0100
0010
0100
0010
1000
0010
0100
0001
0010
0100
1000
0100
0010
,
0001
1000
0100
0010
0001
0010
0100
1000
0001
0010
0100
1000
0100
0010
0001
1000
,
0100
0010
0001
0100
0010
0001
0010
0100
1000
0100
0010
0001
1000
0100
0010
0001
,
0110
0000
0011
0000
1100
0000
0110
0000
2002
0000
0100
0000
3013
0000
2200
3300
,
0202
0000
0010
0000
1303
0000
0220
0330
2002
3103
0010
0001
0010
0001
0100
0010
,
0001
0010
0100
0010
1000
0100
0010
0000
1000
0100
0010
1000
0010
0001
0100
0010
,
2000
0001
0100
0010
0001
0010
3100
0010
1100
0000
1010
0000
0011
0000
0110
0000
,
2002
0000
0010
0000
3103
0000
0022
0033
0220
0000
0001
0000
1330
0000
0202
0303
,
2200
0000
0010
3300
0001
0000
1000
0010
0100
0010
1000
0100
0010
0100
0010
0001
,
0100
0010
0001
0010
1000
0100
0020
0001
0100
0001
1000
0001
0100
0001
1030
0001
,
1100
0002
0000
0010
0000
0000
1010
0003
0000
0200
0000
0000
1001
0000
0000
0010
0300
0000
0021
0000
0000
1000
0030
0000
,
2100
0000
0000
0001
0000
0000
0101
0000
0000
0010
0000
0000
0011
0000
0000
0100
0000
0000
0110
3000
0000
0001
0000
0000
,
1100
0020
0000
1000
0000
0000
0101
0030
0000
2001
0000
0000
0110
0000
0000
0100
3000
0000
0012
0000
0000
1000
0000
0003
,
0210
0010
1001
0001
1010
1000
0011
0301
,
1010
0100
0010
1000
0010
0100
0010
1000
0001
0100
0001
0010
0001
0100
0010
1000
,
0010
0100
0010
1000
0010
0001
0010
0100
0010
0001
0010
0100
0001
0010
0100
0010
,
0001
0100
0010
0001
0010
1000
0010
0100
0010
1000
0100
0010
0100
1000
0010
0100
,
1000
0100
0010
1000
0010
0100
0010
0001
1020
0000
0000
0030
2001
0000
0000
3000
,
0102
1100
0010
0010
0100
0010
1000
1000
,
0110
1100
0010
0010
0100
0010
0100
0100
,
1013
0110
0001
0001
0010
0100
1000
1000
,
0011
0101
0010
0010
1000
0100
0010
0010
,
1001
1100
0001
0001
1000
0010
0100
0100
,
1001
0110
0001
0001
0100
0010
1000
1000
,
0011
1100
0010
0010
0100
0010
1000
1000
,
0011
1100
0001
0001
0010
0100
1000
1000
,
0101
0110
1000
1000
0100
0010
0100
1000
,
0101
0101
0010
0010
0100
1000
0100
0010
,
1001
1001
0100
0100
0010
0001
0010
0100
,
0011
0011
0100
0100
0010
0001
0010
0100
,
1001
1001
0010
0010
0100
1000
0100
0010
,
0101
0101
1000
1000
0100
0010
0100
1000
,
0110
0110
0001
0001
0010
0100
0010
0001
,
1100
1100
0010
0010
0100
1000
0100
0010
,
1001
1001
0100
0100
0010
0001
0010
0100
,
0011
0011
1000
1000
0100
0010
0100
1000
,
0110
0110
0001
0001
0010
0100
0010
0001
,
1010
1010
0100
0100
0010
0001
0010
0100
,
0011
0011
1000
1000
0100
0010
0100
1000
,
0110
0110
0001
0001
0010
0100
0010
0001
,
0110
0110
1000
1000
0100
0010
0100
1000
,
0101
0101
0010
0010
0100
1000
0100
0010
,
0001
0000
2000
0000
0000
0000
0000
0000
0000
0000
0000
0000
0101
0000
3000
0000
0000
0000
0020
0000
0000
0000
0000
0000
0101
0000
0000
0000
0000
0000
0000
0000
0000
0030
0000
0000
1200
0000
0000
0000
0000
0000
1010
0000
0000
0300
0000
0000
,
0002
0000
1010
0000
0110
0003
2000
0000
0101
0000
0000
3000
0021
0000
1001
0030
,
0200
0000
0000
0000
0000
0000
0000
0000
0000
0300
0000
0000
0010
0000
0000
0000
0000
0000
0010
0000
0002
0000
0000
0000
0100
0000
0000
0000
0000
0000
1000
0000
0000
0000
0000
0000
0100
0000
0000
0000
0000
0000
0010
0000
0000
0000
0000
0000
,
0000
0000
0000
0000
0000
0000
1000
0000
0000
1000
0000
0000
0100
0000
0000
0010
0000
0000
0100
0000
0000
1000
0003
0000
,
0020
0000
0000
0000
1001
0030
0200
0000
1010
0000
1010
0300
0002
0000
0110
0003
,
1000
0000
0000
0000
0200
0000
1001
0000
0000
0000
0000
0000
1001
0000
0300
0000
0000
0000
0020
0000
0000
0000
0000
0000
1001
0000
0000
0000
0000
0000
1130
0000
0000
0000
0000
0000
0200
0000
0000
0000
0000
0000
0000
0000
0000
0300
0000
0000
,
1002
0000
0000
0000
0000
0000
0000
0000
0000
0000
0000
0000
1100
0000
0000
0003
0000
0000
1100
0000
0000
0000
0020
0000
1100
0000
0000
0000
0000
0000
0000
0000
0000
0000
0000
0000
0000
0000
0000
0000
0000
0000
0101
0000
0000
0000
0000
0000
,
0000
0101
0000
1100
0101
1100
0101
0000
,
0030
0000
0000
0000
0000
0000
0000
0000
0000
0000
0000
0000
1100
0000
0002
0000
0000
0000
0000
0000
0000
0000
0000
0000
0000
0000
0000
0000
0000
0000
0003
0000
0000
0000
0000
0000
1100
0000
0000
0010
0000
0000
1000
0000
0000
0010
0000
0000
,
0200
1301
0000
1010
,
0001
0000
0000
0000
0000
0000
0000
0000
0200
0000
0000
0000
1001
0000
0300
0000
0000
0000
0010
0000
0000
0000
0000
0000
1000
0000
0000
0001
0000
0000
0100
0000
0000
0001
0000
0000
1000
0000
0000
0010
0000
0000
0100
0000
0000
0010
0000
0000
,
1000
0010
0100
0001
0100
0010
1000
0001
0100
0010
1000
0100
0010
0001
0100
0000
,
0000
0000
0000
0000
0000
0000
0000
0000
1100
0001
0000
0000
0010
0000
0000
0000
0001
0000
0000
0000
1000
0000
0000
0000
0011
0000
0000
0000
0100
0000
0010
0000
,
0200
0000
0000
0000
0300
0000
0000
0000
0011
0000
1000
0000
0001
0000
0000
0000
0100
0000
0000
0000
0020
0000
0000
0000
1130
0000
0000
0000
1000
0001
0000
0000
,
0100
0000
0000
0000
0000
0000
0010
0000
0000
1000
0000
0000
0010
0000
0000
1000
0000
0000
0020
0000
0000
0030
0000
0000
0000
0000
0000
0000
0000
0000
0001
0000
1000
0000
0000
0000
0010
0000
0000
0100
0000
0000
0020
0000
0000
0030
0000
0000
,
0000
0000
1000
0100
0010
0001
0020
0030
0000
0000
0001
0010
0100
1000
0200
0300
,
2000
0000
0000
0000
0101
0000
0000
0000
0000
0000
0000
3000
0011
0000
0100
0000
,
0010
0000
1000
0000
0101
0000
0010
0000
0100
0000
1000
0000
0011
0000
0100
0010
,
0100
0010
1100
0001
0100
0010
1100
0001
,
0010
0000
0100
0000
1010
0000
0001
0000
0200
0000
0000
0000
1001
0000
0000
0300
,
0002
0000
0000
0000
0000
0000
0003
0000
0000
0000
0000
0000
1100
0000
0010
0000
1000
0000
0010
0000
0000
0000
0000
0000
0100
0000
0000
0000
0000
0000
0001
0000
0000
0000
0000
0000
0210
0000
0000
0300
0000
0000
0000
0000
0000
0000
0000
0000
,
2000
0000
0000
0000
0000
0000
3000
0000
0000
0000
0000
0000
0011
0000
0100
0000
0001
0000
0100
0000
0000
0000
0000
0000
0010
0000
0000
0000
1000
0000
0000
0000
0000
0000
0000
0000
0021
0000
0000
0030
0000
0000
0000
0000
0000
0000
0000
0000
,
2000
0000
3000
0000
0011
0100
0010
1000
0010
0100
0001
0010
0100
1000
0100
0010
,
0100
0000
0010
0001
0100
0010
0001
0010
1000
0010
0100
0001
0010
0100
1000
0010
,
0101
0110
1000
1000
0001
0100
1000
1000
,
0101
0011
0100
0100
0001
0100
0010
0010
,
1001
0110
0001
0001
0100
0010
0001
0001
,
1100
1010
0100
0100
0010
1000
0001
0001
,
1100
0110
1000
1000
0100
0010
0001
0001
,
0110
0011
1000
1000
0010
0100
1000
1000
,
0110
1001
0100
0100
0010
1000
0001
0001
,
0110
0011
1000
1000
0100
1000
0010
0010
,
1100
1100
0100
0100
0010
0001
0010
0100
,
1001
1001
0100
0100
0010
0001
0010
0100
,
1010
1010
0010
0010
0100
1000
0100
0010
,
1010
1010
1000
1000
0100
0010
0101
1000
,
0100
0001
1010
1000
0001
0100
1010
1000
,
0100
0010
1100
0100
0001
0100
1010
0010
,
1000
0100
1001
0001
0100
0010
0101
0001
,
1000
0010
0101
0100
0010
1000
0011
0001
,
0100
0010
1000
1000
0100
0010
0100
1000
,
0011
0011
0100
0100
0010
0001
0010
0100
,
1001
1001
0001
0001
0010
0100
0010
0001
,
1010
1010
0010
0010
0100
1000
0100
0010
,
0001
0100
0001
0100
0010
1000
0010
0100
0010
1000
0010
0100
0010
1000
0100
0001
,
0100
0001
0010
0001
0100
0001
0010
0001
0100
0010
1000
0010
0100
0010
1000
0010
,
0100
0010
1000
0010
0100
0001
0100
0001
0100
0010
0100
0010
1000
0010
0100
0010
,
1000
0100
0001
0100
1000
0100
0001
0100
0010
0001
0100
0010
0001
0010
1000
0010
,
0100
1000
0100
0010
1000
0010
0100
1000
0100
0010
1000
0010
0100
1000
0100
0010
,
0001
0010
0100
0001
0010
0100
0001
0100
0010
0001
0100
0010
1000
0100
0010
1000
,
0010
1000
0010
0001
0100
1000
0100
0010
0001
0010
0100
0001
0100
0010
0001
0010
,
0100
0100
0100
0100
0100
0100
0100
0100
0100
0100
0100
0100
0100
0010
1000
0010
,
0100
0010
1000
0100
0010
0100
0010
0001
0100
0010
0001
0010
0100
0010
1000
0100
,
0001
0100
0010
0001
1000
0100
0001
0100
0010
0001
0100
0010
0001
0010
1000
0010
,
0100
0010
1000
0100
0001
0100
1000
0100
0010
0001
0100
0010
0001
0010
0100
0010
,
1000
0100
0010
0100
1000
0100
0010
0100
1000
0010
0100
1000
0100
0010
0100
1000
,
0100
0010
1000
0010
0001
0010
0100
0001
0010
0100
0010
0001
1000
0100
0010
0100
,
1000
0001
0010
0100
0010
0001
0010
1000
0010
0001
0100
1000
0100
0010
1000
0010
,
0100
1000
0100
0010
1000
0010
0100
1000
0100
0010
1000
0010
0001
0010
0100
0001
,
1010
0101
1001
1010
0101
0011
0110
2002
,
0100
0000
0010
3003
0220
0330
0202
0000
0010
0000
1000
0303
2020
3030
2002
3103
,
0010
0001
0010
0001
0100
0010
0001
0010
0100
0010
1000
0100
0010
0000
1000
0100
,
0010
1000
0010
0001
0100
0010
2000
0001
0100
0010
0100
0001
3100
0010
1100
0000
,
1010
0000
0011
0000
0110
0000
2002
0000
0010
0000
3103
0000
0022
0033
0220
0000
,
0001
0000
1330
0000
0202
0303
1000
0010
0100
0010
1000
0001
0100
0001
0010
0100
,
0001
0100
0010
0100
0001
0100
1000
0100
0010
0100
1000
0100
0010
0001
0100
0010
,
0001
0010
0200
0010
0301
0010
1001
0000
0101
0000
1010
0000
1001
0000
0220
0000
,
0001
0000
0000
0000
1000
0000
0330
0000
2002
0000
3003
0000
2020
0000
0000
0000
0001
0000
0000
0000
0100
0000
3030
0000
0022
0000
0033
0000
0100
1000
0000
0000
,
0001
0000
0100
0001
0010
0001
1000
0010
0100
0001
0010
0001
0100
0010
1000
0001
,
0100
0001
0010
0100
0001
0100
1000
0010
0100
0001
0010
0100
0001
0100
1010
0000
,
1001
0000
0110
0000
0011
0000
2002
0000
0010
0000
0100
3003
2020
3030
2200
0000
,
0010
0000
0000
0000
0000
0000
0001
0000
0000
3300
0000
0000
0022
0000
0000
0033
0000
0000
0010
0000
0100
0000
0000
0000
0010
0000
0100
0000
0000
0000
0010
0000
0100
0000
0000
0000
0010
0000
0100
0000
0000
0000
0010
0000
0100
0000
0000
0000
,
0010
0100
0000
0010
0100
0000
0010
0100
0000
0010
0100
0000
0010
0100
0000
0010
0100
0000
0010
0100
0000
0010
0200
0000
,
0010
0000
0000
1000
0000
0000
0010
0000
0000
0001
0300
0000
0010
0000
0000
0100
0000
0000
1001
0000
0000
0000
0000
0000
1100
0000
0000
0000
0000
0000
0101
0000
0000
0000
0000
0000
1010
0000
0000
0000
0000
0000
2002
0000
0000
0000
0000
0000
,
0010
0000
0100
3003
2220
3330
0222
0000
1000
0000
1000
0333
2022
3033
2202
0000
,
0010
3303
0010
0100
0010
1000
0001
0100
0001
0100
0010
0001
0010
1000
0010
0100
,
1000
0000
0000
0100
0000
0000
0010
0000
0000
1000
0000
0000
0010
0000
0000
0100
0000
0000
0001
0000
0000
0100
0000
0000
0010
0000
0000
0001
0000
0000
0010
0000
0000
0100
0000
0000
0010
0000
0000
1000
0000
0000
0101
0000
0020
0000
0000
0000
,
0000
0000
0000
1031
0000
0000
0200
0000
0000
1010
0000
0000
0310
0000
0000
2001
0000
0000
0010
3000
0000
0102
0000
0000
,
1000
0000
0000
1010
0000
0000
0100
0000
0000
1100
0000
0000
1000
0000
0000
0110
0000
0000
1003
0000
0000
1100
0020
0000
,
0000
0000
0000
0131
0000
0000
2000
0000
0000
0110
0000
0000
3010
0000
0000
0102
0000
0000
1000
0003
0000
0210
0000
0000
,
0001
0000
0000
1010
0000
0000
1000
0000
0000
0011
0000
0000
0001
0000
0000
1310
0000
0000
0100
0000
0000
0011
2000
0000
,
0001
0000
0000
0110
3000
0000
0102
0000
0000
1010
0000
0000
1000
0003
0000
0210
0000
0000
0301
0000
0000
1020
0000
0000
,
0100
0000
0000
1001
0000
0000
1000
0000
0000
0101
0000
0000
0100
0000
0000
1001
0000
0000
0130
0000
0000
1100
0002
0000
,
0100
0000
0000
1010
0003
0000
0200
0000
0000
1010
0000
0000
0301
0000
0000
0021
0000
0000
0031
0000
0000
1200
0000
0000
,
0001
0000
1010
0000
0001
0000
0011
0000
1000
0000
1301
0000
0010
0000
1100
0010
,
0001
0010
0100
0010
0001
1000
0010
0100
0010
0001
0010
0100
0010
1000
0010
0001
,
0010
0100
0001
0100
0010
1000
0010
0100
0001
0100
0010
0001
0010
1000
0010
0100
,
0001
0010
0100
1000
0100
0001
0100
0010
0001
0100
0010
0001
0010
1000
0010
0100
,
0001
0010
0100
1000
0100
0010
0100
1000
0010
0100
1000
0100
0010
1000
0010
0001
,
0010
0100
0001
0010
0100
0010
0001
0100
0010
1000
0010
0100
1000
0100
0010
1000
,
0010
0100
1000
0100
0010
0100
1000
0100
0001
0100
1000
0100
0010
1000
0010
0001
,
0010
0100
0010
0001
0010
0100
0010
0001
0010
0100
0010
1000
0010
0100
0001
1000
,
0001
1000
0010
0100
0010
0100
0010
0100
0010
0100
0010
1000
0010
1000
0011
0000
,
1100
0001
0001
0010
0100
1000
1000
0011
,
1100
0010
0010
1000
0100
0010
0010
1001
,
0110
0001
0001
1000
0010
0100
0100
2M22
,
0000
3033
0000
2222
0000
0000
0000
0000
,
0000
0000
0000
0000
,
0000
0000
0000
0000
,
0000
0000
0000
0000
,
0000
0000
0000
0000
,
0000
0000
0000
0000
,
0000
0000
0000
0000
0000
0000
0000
3333
;

//---------------dance-single - Copied from Copied f----------------
#NOTES:
     dance-single:
     Copied from Copied f:
     Challenge:
     14:
     1.000,1.000,1.000,0.667,1.000:
0000
0000
0000
0000
,
1100
1010
0001
0001
0100
0010
1000
1000
,
0011
0101
0010
0010
0100
0010
1000
1000
,
0011
0110
0001
0001
0010
0100
1000
1000
,
0101
1100
0010
0010
1000
0100
0010
0010
,
1001
1100
0001
0001
0010
0100
0010
0001
,
0110
0101
1000
1000
0100
0010
0100
1000
,
0110
1010
0001
0001
0010
0100
0010
0001
,
1010
0011
1000
1000
0100
0010
0100
1000
,
0110
0101
0010
1000
0001
0001
0100
0010
,
1100
1100
0001
1000
0010
0010
0100
0010
,
1100
1100
0001
0100
0001
0001
0010
0100
,
0011
0011
1000
0100
0010
0010
1000
0100
,
1010
1010
0001
0001
0010
0100
0010
0001
,
0110
0101
1000
1000
0100
0010
0100
1000
,
0011
1010
0001
0001
0010
0100
0010
0001
,
1100
1010
0001
0010
0100
1000
0100
0010
,
0101
1000
0010
0100
0011
1000
0100
0010
0101
0010
0001
0100
1010
0001
0010
0100
,
0011
1000
0010
0100
0011
1000
0010
0001
0110
1000
0010
0100
1001
0100
0010
1000
,
0011
0100
0010
1000
0110
0001
0100
1000
0110
0001
0100
0010
1001
0010
0001
0010
,
1100
0010
0001
0100
1010
0001
0010
0100
1010
0001
0010
0100
1010
0001
0010
1000
,
0011
0100
0001
0100
1010
0100
0001
0100
0011
1000
0010
1000
0110
1000
0010
0001
,
0110
0001
0010
0100
1010
0100
0010
1000
0011
0100
0001
0010
0101
1000
0100
0010
,
0101
1000
0100
0010
1001
0010
0100
1000
0101
0010
0100
1000
0101
0010
0001
1000
,
0202
0313
0202
1303
0010
0001
0010
0100
2002
0100
3013
0001
1000
0100
0010
0001
,
0110
0000
0011
0000
1100
0000
0110
0000
2002
0000
0100
0000
3013
0000
2200
3300
,
0202
0000
0010
0000
1303
0000
0220
0330
2002
3103
0010
0001
1010
0001
0100
0010
,
1001
0010
0100
0010
1001
0100
0010
0000
1001
0100
0010
1000
0110
0001
0100
0010
,
2100
0001
0100
0010
0101
0010
3100
0010
1100
0000
1010
0000
0011
0000
0110
0000
,
2002
0000
0010
0000
3103
0000
0022
0033
0220
0000
0001
0000
1330
0000
0202
0303
,
2200
0000
0010
3300
0011
0000
1000
0010
0101
0010
1000
0100
0011
0100
0010
0001
,
1100
0010
0001
0010
1001
0100
0020
0001
1100
0001
1000
0001
1100
0001
1030
0001
,
1100
0002
0000
0010
0000
0000
1010
0003
0000
0200
0000
0000
1001
0000
0000
0010
0300
0000
0021
0000
0000
1000
0030
0000
,
2100
0000
0000
0001
0000
0000
0101
0000
0000
0010
0000
0000
0011
0000
0000
0100
0000
0000
0110
3000
0000
0001
0000
0000
,
1100
0020
0000
1000
0000
0000
0101
0030
0000
2001
0000
0000
0110
0000
0000
0100
3000
0000
0012
0000
0000
1000
0000
0003
,
0210
0010
1001
0001
1010
1000
0011
0301
,
1010
0100
0010
1000
0011
0100
0010
1000
0011
0100
0001
0010
1001
0100
0010
1000
,
0011
0100
0010
1000
0110
0001
0010
0100
1010
0001
0010
0100
1001
0010
0100
0010
,
1001
0100
0010
0001
0110
1000
0010
0100
0011
1000
0100
0010
0101
1000
0010
0100
,
1001
0100
0010
1000
0011
0100
0010
0001
1020
0000
0000
0030
2001
0000
0000
3000
,
0102
1100
0010
0010
0100
0010
1000
1000
,
0110
1100
0010
0010
0100
0010
0100
0100
,
1013
0110
0001
0001
0010
0100
1000
1000
,
0011
0101
0010
0010
1000
0100
0010
0010
,
1001
1100
0001
0001
1000
0010
0100
0100
,
1001
0110
0001
0001
0100
0010
1000
1000
,
0011
1100
0010
0010
0100
0010
1000
1000
,
0011
1100
0001
0001
0010
0100
1000
1000
,
M111
111M
1001
1000
0100
0010
0101
1000
,
M111
11M1
1010
0010
0100
1000
0101
0010
,
11M1
1M11
0110
0100
0010
0001
1010
0100
,
M111
1M11
1100
0100
0010
0001
1010
0100
,
1M11
11M1
0110
0010
0100
1000
0101
0010
,
11M1
M111
1001
1000
0100
0010
0101
1000
,
M111
111M
0101
0001
0010
0100
1010
0001
,
11M1
111M
0011
0010
0100
1000
0101
0010
,
1M11
11M1
0101
0100
0010
0001
1010
0100
,
1M11
M111
1001
1000
0100
0010
0101
1000
,
111M
M111
1001
0001
0010
0100
1010
0001
,
1M11
0000
111M
0000
0110
0000
0100
0100
0010
0000
0001
0000
1010
0000
0100
0000
,
M111
0000
1M11
0000
1001
0000
1000
1000
0100
0000
0010
0000
0101
0000
1000
0000
,
11M1
0000
M111
0000
0011
0000
0001
0001
0010
0000
0100
0000
1010
0000
0001
0000
,
111M
0000
M111
0000
1010
0000
1000
1000
0100
0000
0010
0000
0101
0000
1000
0000
,
1M11
0000
M111
0000
0110
0000
0010
0010
0100
0000
1000
0000
0101
0000
0010
0000
,
0001
0000
2000
0000
0000
0000
0000
0000
0000
0000
0000
0000
0101
0000
3000
0000
0000
0000
0020
0000
0000
0000
0000
0000
0101
0000
0000
0000
0000
0000
0000
0000
0000
0030
0000
0000
1200
0000
0000
0000
0000
0000
1010
0000
0000
0300
0000
0000
,
0002
0000
1010
0000
0110
0003
2000
0000
0101
0000
0000
3000
0021
0000
1001
0030
,
0200
0000
0000
0000
0000
0000
0000
0000
0000
0300
0000
0000
1010
0000
0000
0000
0000
0000
0010
0000
0002
0000
0000
0000
0100
0000
0000
0000
0000
0000
1000
0000
0000
0000
0000
0000
0110
0000
0000
0000
0000
0000
0010
0000
0000
0000
0000
0000
,
0000
0000
0000
0000
0000
0000
0000
0000
0000
0000
0000
0000
1010
0000
0000
0000
0000
0000
1000
0000
0000
0000
0000
0000
0100
0000
0000
0000
0000
0000
0010
0000
0000
0000
0000
0000
0110
0000
0000
0000
0000
0000
1000
0000
0003
0100
0000
0000
,
0020
0000
0000
0000
1001
0030
0200
0000
1010
0000
1010
0300
1002
0000
0110
0003
,
1000
0000
0000
0000
0200
0000
1001
0000
0000
0000
0000
0000
1001
0000
0300
0000
0000
0000
0020
0000
0000
0000
0000
0000
1001
0000
0000
0000
0000
0000
1130
0000
0000
0000
0000
0000
0201
0000
0000
0000
0000
0000
0000
0000
0000
0300
0000
0000
,
1002
0000
0000
0000
0000
0000
0000
0000
0000
0000
0000
0000
1100
0000
0000
0003
0000
0000
1100
0000
0000
0000
0020
0000
1100
0000
0000
0000
0000
0000
0000
0000
0000
0000
0000
0000
0101
0000
0000
0000
0000
0000
0101
0000
0000
0000
0000
0000
,
0000
0101
0101
1100
0101
1100
0101
0000
,
1030
0000
0000
0000
0000
0000
1000
0000
0000
0000
0000
0000
1100
0000
0002
0000
0000
0000
0000
0000
0000
0000
0000
0000
1000
0000
0000
0000
0000
0000
1003
0000
0000
0000
0000
0000
1100
0000
0000
0010
0000
0000
1000
0000
0000
0010
0000
0000
,
0200
0010
1301
0000
0001
0001
1010
0000
,
0001
0000
0000
0000
0000
0000
0001
0000
0200
0000
0000
0000
1001
0000
0300
0000
0000
0000
0010
0000
0000
0000
0000
0000
1000
0000
0000
0001
0000
0000
0100
0000
0000
0001
0000
0000
1100
0000
0000
0010
0000
0000
0100
0000
0000
0010
0000
0000
,
1000
0010
0100
0001
1100
0010
1000
0001
0100
0010
1000
0100
1010
0001
0100
0000
,
1000
0000
0000
0000
1000
0000
0000
0000
1100
0001
0000
0000
0010
0000
0000
0000
0001
0000
0000
0000
1000
0000
0000
0000
0011
0000
0000
0000
0100
0000
0010
0000
,
0200
0000
0000
0000
0300
0000
0000
0000
0011
0000
1000
0000
0001
0000
0000
0000
0100
0000
0000
0000
0020
0000
0000
0000
1130
0000
0000
0000
1000
0001
0000
0000
,
0100
0000
0000
0000
0000
0000
0010
0000
0000
1000
0000
0000
0011
0000
0000
1000
0000
0000
0020
0000
0000
0030
0000
0000
0000
0000
0000
0000
0000
0000
0001
0000
1000
0000
0000
0000
0011
0000
0000
0100
0000
0000
0020
0000
0000
0030
0000
0000
,
0000
0000
1000
0100
1010
0001
0020
0030
0000
0000
0001
0010
0101
1000
0200
0300
,
2000
0000
0010
0000
0101
0000
0000
0000
0100
0000
0100
3000
0011
0000
0100
0000
,
0010
0000
1000
0000
0101
0000
0010
0000
0100
0000
1000
0000
0011
0000
0100
0010
,
0100
0010
1100
0001
0100
0010
1100
0001
,
0010
0000
0100
0000
1010
0000
0001
0000
0200
0000
0000
0000
1001
0000
0000
0300
,
0002
0000
0000
0000
0000
0000
0003
0000
0000
0000
0000
0000
1100
0000
0010
0000
1000
0000
0010
0000
0000
0000
0000
0000
0100
0000
0000
0000
0000
0000
0001
0000
0000
0000
0000
0000
0210
0000
0000
0300
0000
0000
0000
0000
0000
0000
0000
0000
,
2000
0000
0000
0000
0000
0000
3000
0000
0000
0000
0000
0000
0011
0000
0100
0000
0001
0000
0100
0000
0000
0000
0000
0000
0010
0000
0000
0000
1000
0000
0000
0000
0000
0000
0000
0000
0021
0000
0000
0030
0000
0000
0000
0000
0000
0000
0000
0000
,
2000
0000
3000
0000
0011
0100
0010
1000
0010
0100
0001
0010
0101
1000
0100
0010
,
0100
0000
0010
0001
0100
0010
0001
0010
1000
0010
0100
0001
1000
0100
1000
0010
,
0101
0110
1000
1000
0001
0100
1000
1000
,
0101
0011
0100
0100
0001
0100
0010
0010
,
1001
0110
0001
0001
0100
0010
0001
0001
,
1100
1010
0100
0100
0010
1000
0001
0001
,
1100
0110
1000
1000
0100
0010
0001
0001
,
0110
0011
1000
1000
0010
0100
1000
1000
,
0110
1001
0100
0100
0010
1000
0001
0001
,
0110
0011
1000
1000
0100
1000
0011
0010
,
11M1
111M
1100
0100
0010
0001
1010
0100
,
1M11
11M1
0110
0100
0010
0001
1010
0100
,
1M11
111M
0011
0010
0100
1000
0101
0010
,
111M
1M11
1010
1000
0100
0010
0101
1000
,
0100
0001
1010
1000
0001
0100
1010
1000
,
0100
0010
1100
0100
0001
0100
1010
0010
,
1000
0100
1001
0001
0100
0010
0101
0001
,
1000
0010
0101
0100
0010
1000
0011
0001
,
0100
0010
1001
1000
0100
0010
0110
1000
,
1M11
M111
0101
0100
0010
0001
1010
0100
,
1M11
11M1
1001
0001
0010
0100
1010
0001
,
1M11
111M
0110
0010
0100
1000
0101
0010
,
1001
0100
0001
0100
0011
1000
0010
0100
0011
1000
0010
0100
0011
1000
0100
0001
,
0110
0001
0010
0001
1100
0001
0010
0001
1100
0010
1000
0010
0101
0010
1000
0010
,
0101
0010
1000
0010
1100
0001
0100
0001
1100
0010
0100
0010
1001
0010
0100
0010
,
1001
0100
0001
0100
1010
0100
0001
0100
1010
0001
0100
0010
0101
0010
1000
0010
,
0101
1000
0100
0010
1001
0010
0100
1000
0101
0010
1000
0010
0101
1000
0100
0010
,
0101
0010
0100
0001
1010
0100
0001
0100
1010
0001
0100
0010
1001
0100
0010
1000
,
0011
1000
0010
0001
0110
1000
0100
0010
1001
0010
0100
0001
1100
0010
0001
0010
,
0100
0100
0100
0100
0100
0100
0100
0100
0100
0100
0100
0100
0100
0010
1000
0010
,
0101
0010
1000
0100
0011
0100
0010
0001
1100
0010
0001
0010
0101
0010
1000
0100
,
0011
0100
0010
0001
1010
0100
0001
0100
1010
0001
0100
0010
0101
0010
1000
0010
,
0101
0010
1000
0100
0011
0100
1000
0100
1010
0001
0100
0010
1001
0010
0100
0010
,
1001
0100
0010
0100
1001
0100
0010
0100
1001
0010
0100
1000
0101
0010
0100
1000
,
0101
0010
1000
0010
0101
0010
0100
0001
1010
0100
0010
0001
1010
0100
0010
0100
,
1010
0001
0010
0100
1010
0001
0010
1000
0110
0001
0100
1000
0101
0010
1000
0010
,
0101
1000
0100
0010
1001
0010
0100
1000
0101
0010
1000
0010
1001
0010
0100
0001
,
1010
0101
1001
1010
0101
0011
0110
2002
,
0100
0000
0010
3003
0220
0330
0202
0000
0010
0000
1000
0303
2020
3030
2002
3103
,
0010
0001
0110
0001
0100
0010
1001
0010
0100
0010
1001
0100
0010
0000
1001
0100
,
0010
1000
0110
0001
0100
0010
2100
0001
0100
0010
0101
0001
3100
0010
1100
0000
,
1010
0000
0011
0000
0110
0000
2002
0000
0010
0000
3103
0000
0022
0033
0220
0000
,
0001
0000
1330
0000
0202
0303
1000
0010
0100
0010
1100
0001
0100
0001
1010
0100
,
0001
0100
1010
0100
0001
0100
1001
0100
0010
0100
1001
0100
0010
0001
1100
0010
,
0001
0010
1200
0010
0301
0010
1001
0000
0101
0000
1010
0000
1001
0000
0220
0000
,
0001
0000
0000
0000
1000
0000
0330
0000
2002
0000
3003
0000
2020
0000
0000
0000
0001
0000
0000
0000
0100
0000
3030
0000
0022
0000
0033
0000
0100
1000
0000
0000
,
0001
0000
1100
0001
0010
0001
1100
0010
0100
0001
1010
0001
0100
0010
1100
0001
,
0100
0001
1010
0100
0001
0100
1001
0010
0100
0001
1010
0100
0001
0100
1010
0000
,
1001
0000
0110
0000
0011
0000
2002
0000
0010
0000
0100
3003
2020
3030
2200
0000
,
0010
0000
0000
0000
0000
0000
0001
0000
0000
3300
0000
0000
0022
0000
0000
0033
0000
0000
0011
0000
0100
0000
0000
0000
0010
0000
0100
0000
0000
0000
0011
0000
0100
0000
0000
0000
0010
0000
0100
0000
0000
0000
0011
0000
0100
0000
0000
0000
,
0010
0100
0000
0011
0100
0000
0010
0100
0000
0011
0100
0000
0010
0100
0000
0011
0100
0000
0010
0100
0000
0011
0200
0000
,
0010
0000
0000
1000
0000
0000
1010
0000
0000
0001
0300
0000
0010
0000
0000
0100
0000
0000
1001
0000
0000
0000
0000
0000
1100
0000
0000
0000
0000
0000
0101
0000
0000
0000
0000
0000
1010
0000
0000
0000
0000
0000
2002
0000
0000
0000
0000
0000
,
0010
0000
0100
3003
2220
3330
0222
0000
1000
0000
1000
0333
2022
3033
2202
0000
,
0010
3303
0011
0100
0010
1000
0011
0100
0001
0100
1010
0001
0010
1000
0011
0100
,
1000
0000
0000
0100
0000
0000
0011
0000
0000
1000
0000
0000
0010
0000
0000
0100
0000
0000
0011
0000
0000
0100
0000
0000
0010
0000
0000
0001
0000
0000
1010
0000
0000
0100
0000
0000
0010
0000
0000
1000
0000
0000
0101
0000
0020
0000
0000
0000
,
0000
0000
0000
1031
0000
0000
0200
0000
0000
1010
0000
0000
0310
0000
0000
2001
0000
0000
0010
3000
0000
0102
0000
0000
,
1000
0000
0000
1010
0000
0000
0100
0000
0000
1100
0000
0000
1000
0000
0000
0110
0000
0000
1003
0000
0000
1100
0020
0000
,
0000
0000
0000
0131
0000
0000
2000
0000
0000
0110
0000
0000
3010
0000
0000
0102
0000
0000
1000
0003
0000
0210
0000
0000
,
0001
0000
0000
1010
0000
0000
1000
0000
0000
0011
0000
0000
0001
0000
0000
1310
0000
0000
0100
0000
0000
0011
2000
0000
,
0001
0000
0000
0110
3000
0000
0102
0000
0000
1010
0000
0000
1000
0003
0000
0210
0000
0000
0301
0000
0000
1020
0000
0000
,
0100
0000
0000
1001
0000
0000
1000
0000
0000
0101
0000
0000
0100
0000
0000
1001
0000
0000
0130
0000
0000
1100
0002
0000
,
0100
0000
0000
1010
0003
0000
0200
0000
0000
1010
0000
0000
0301
0000
0000
0021
0000
0000
0031
0000
0000
1200
0000
0000
,
0001
0000
1010
0000
0001
0000
0011
0000
1000
0000
1301
0000
0010
0000
1100
0010
,
0001
0010
1100
0010
0001
1000
0011
0100
0010
0001
1010
0100
0010
1000
0110
0001
,
0010
0100
1001
0100
0010
1000
0011
0100
0001
0100
1010
0001
0010
1000
0011
0100
,
0001
0010
0101
1000
0100
0001
1100
0010
0001
0100
1010
0001
0010
1000
0011
0100
,
0001
0010
0101
1000
0100
0010
0101
1000
0010
0100
1001
0100
0010
1000
0110
0001
,
0010
0100
1001
0010
0100
0010
1001
0100
0010
1000
0011
0100
1000
0100
0011
1000
,
0010
0100
1001
0100
0010
0100
1001
0100
0001
0100
1010
0100
0010
1000
0110
0001
,
0010
0100
1010
0001
0010
0100
1010
0001
0010
0100
0011
1000
0010
0100
0001
1000
,
0001
1000
0010
0100
0010
0100
0010
0100
0010
0100
0010
1000
0010
1000
0011
0000
,
1100
0001
0001
0010
0100
1000
1000
0011
,
1100
0010
0010
1000
0100
0010
0010
1001
,
0110
0001
0001
1000
0010
0100
0100
2M22
,
0000
3033
0000
2222
0000
0000
0000
0000
,
0000
0000
0000
0000
,
0000
0000
0000
0000
,
0000
0000
0000
0000
,
0000
0000
0000
0000
,
0000
0000
0000
0000
,
0000
0000
0000
0000
0000
0000
0000
3333
;

//---------------dance-single - Copied from----------------
#NOTES:
     dance-single:
     Copied from:
     Easy:
     8:
     0.742,1.000,0.391,0.888,0.138:  // measure 1
0000
0000
0000
0000
,  // measure 2
0100
0010
0001
0001
0100
0010
1000
1000
,  // measure 3
0001
0100
0010
0010
0100
0010
1000
1000
,  // measure 4
0010
0100
0001
0001
0010
0100
1000
1000
,  // measure 5
0001
0100
0010
0010
1000
0100
0010
0010
,  // measure 6
0001
0100
0001
0001
0010
0100
0010
0001
,  // measure 7
0000
0000
1000
1000
0100
0010
0100
1000
,  // measure 8
0000
0000
0001
0001
0010
0100
0010
0001
,  // measure 9
0000
0000
1000
1000
0100
0010
0100
1000
,  // measure 10
0000
0000
0010
1000
0001
0001
0100
0010
,  // measure 11
1000
1000
0001
1000
0010
0010
0100
0010
,  // measure 12
0100
0100
0001
0100
0001
0001
0010
0100
,  // measure 13
0010
0010
0001
0100
0010
0010
1000
0100
,  // measure 14
1000
1000
0001
0001
0010
0100
0010
0001
,  // measure 15
0000
0000
1000
1000
0100
0010
0100
1000
,  // measure 16
0000
0000
0001
0001
0010
0100
0010
0001
,  // measure 17
0000
0000
0001
0010
0100
1000
0100
0010
,  // measure 18
0002
0000
0000
0000
,  // measure 19
0000
0000
0000
0000
0000
0000
0000
0003
,  // measure 20
2020
0000
0000
0000
0000
0000
0000
3030
,  // measure 21
0202
0000
0000
0000
0000
0000
0000
0303
,  // measure 22
2002
0000
0000
0000
,  // measure 23
0000
0000
0000
0000
0000
0000
0000
3003
,  // measure 24
0220
0000
0000
0000
0000
0000
0000
0330
,  // measure 25
1001
2020
0000
3030
0022
0000
0033
0000
,  // measure 26
1001
0000
0011
0000
1100
0000
0110
0000
2002
0000
0000
0000
3003
0000
2200
3300
,  // measure 27
0202
0000
0000
0000
0303
0000
0220
0330
2002
0000
0000
3003
0100
0000
0010
0100
,  // measure 28
0010
0000
0100
0000
0010
0000
0100
0010
0100
0000
0010
0000
0100
0000
0010
0100
,  // measure 29
0020
0000
0000
0000
0000
0000
0000
0030
1100
0000
1010
0000
0011
0000
0110
0000
,  // measure 30
2002
0000
0000
0000
3003
0000
0022
0033
0220
0000
0000
0000
0330
0000
0202
0303
,  // measure 31
2200
0000
0000
3300
0001
0000
0100
0001
0100
0000
0001
0000
0100
0000
0001
0100
,  // measure 32
0001
0100
0001
0020
0000
0000
0000
0030
,  // measure 33
0002
0000
0000
0000
0000
0000
0000
0003
0000
0200
0000
0000
0000
0000
0000
0000
0300
0000
0020
0000
0000
0000
0030
0000
,  // measure 34
2000
0000
0000
0000
0000
0000
0000
0000
0000
0000
0000
0000
0000
0000
0000
0000
0000
0000
0000
3000
0000
0000
0000
0000
,  // measure 35
0020
0000
0000
0000
0000
0000
0000
0030
0000
2000
0000
0000
0000
0000
0000
0000
3000
0000
0002
0000
0000
0000
0000
0003
,  // measure 36
0200
0000
0000
0000
0000
0000
0000
0000
0000
0000
0000
0000
0000
0000
0000
0300
,  // measure 37
0020
0000
0000
0000
0000
0030
2000
0000
0000
0000
0000
3000
0002
0000
0000
0003
,  // measure 38
0200
0000
0000
0000
0000
0000
0000
0000
0000
0000
0000
0000
0000
0000
0000
0300
,  // measure 39
0020
0000
0000
0000
0000
0030
2000
0000
0000
0000
0000
3000
0002
0000
0000
0003
,  // measure 40
0200
0000
0000
0000
0000
0000
0300
0000
1020
0000
0000
0030
2001
0000
0000
3000
,  // measure 41
0102
1000
0010
0010
0100
0010
1000
1000
,  // measure 42
0010
0100
0010
0010
0100
0010
1000
1000
,  // measure 43
0013
0100
0001
0001
0010
0100
1000
1000
,  // measure 44
0001
0100
0010
0010
1000
0100
0010
0010
,  // measure 45
0001
0100
0001
0001
1000
0010
0100
0100
,  // measure 46
1000
0010
0001
0001
0100
0010
1000
1000
,  // measure 47
0001
0100
0010
0010
0100
0010
1000
1000
,  // measure 48
0010
0100
0001
0001
0010
0100
1000
1000
,  // measure 49
0001
0100
1000
1000
0100
0010
0100
1000
,  // measure 50
0000
0000
0010
0010
0100
1000
0100
0010
,  // measure 51
0000
0000
0100
0100
0010
0001
0010
0100
,  // measure 52
0000
0000
0100
0100
0010
0001
0010
0100
,  // measure 53
0000
0000
0010
0010
0100
1000
0100
0010
,  // measure 54
0000
0000
1000
1000
0100
0010
0100
1000
,  // measure 55
0000
0000
0001
0001
0010
0100
0010
0001
,  // measure 56
0000
0000
0010
0010
0100
1000
0100
0010
,  // measure 57
0000
0000
0100
0100
0010
0001
0010
0100
,  // measure 58
0000
0000
1000
1000
0100
0010
0100
1000
,  // measure 59
0000
0000
0001
0001
0010
0100
0010
0001
,  // measure 60
0000
0000
0100
0100
0010
0001
0010
0100
,  // measure 61
0000
0000
1000
1000
0100
0010
0100
1000
,  // measure 62
0000
0000
0001
0001
0010
0100
0010
0001
,  // measure 63
0000
0000
1000
1000
0100
0010
0100
1000
,  // measure 64
0000
0000
0010
0010
0100
1000
0100
0010
,  // measure 65
2000
0000
0000
0000
0000
0000
0000
0000
0000
0000
0000
0000
0000
0000
3000
0000
0000
0000
0020
0000
0000
0000
0000
0000
0000
0000
0000
0000
0000
0000
0000
0000
0000
0030
0000
0000
0200
0000
0000
0000
0000
0000
0000
0000
0000
0300
0000
0000
,  // measure 66
0002
0000
0000
0000
0000
0003
2000
0000
0000
0000
0000
3000
0020
0000
0000
0030
,  // measure 67
0200
0000
0000
0000
0000
0300
0002
0000
0000
0000
0000
0000
0000
0000
0000
0000
,  // measure 68
0000
0000
0000
0000
0000
0000
0000
0000
0000
0000
0000
0003
,  // measure 69
0020
0000
0000
0000
0000
0030
0200
0000
0000
0000
0000
0300
0002
0000
0000
0003
,  // measure 70
0200
0000
0000
0000
0000
0000
0000
0000
0000
0000
0000
0000
0000
0000
0300
0000
0000
0000
0020
0000
0000
0000
0000
0000
0000
0000
0000
0000
0000
0000
0000
0000
0000
0030
0000
0000
0200
0000
0000
0000
0000
0000
0000
0000
0000
0300
0000
0000
,  // measure 71
0002
0000
0000
0000
0000
0003
0020
0000
0000
0000
0000
0000
0000
0000
0000
0000
,  // measure 72
0000
0000
0000
0000
,  // measure 73
0030
0000
0000
0000
0002
0000
0000
0000
0000
0000
0003
0000
0100
0010
1000
0010
,  // measure 74
0200
0300
0000
0000
,  // measure 75
0001
0000
0000
0000
0000
0000
0000
0000
0200
0000
0000
0000
0000
0000
0300
0000
0000
0000
0010
0000
0000
0000
0000
0000
1000
0000
0000
0001
0000
0000
0100
0000
0000
0001
0000
0000
1000
0000
0000
0010
0000
0000
0100
0000
0000
0010
0000
0000
,  // measure 76
1000
0010
0100
0001
0100
0010
1000
0001
0100
0010
1000
0100
0010
0001
0100
0000
,  // measure 77
0000
0000
0000
0000
0100
0000
0010
0000
0001
0000
1000
0000
0010
0000
0100
0010
,  // measure 78
0200
0000
0300
0000
0001
1000
0001
0000
0100
0000
0020
0000
0030
0000
1000
0000
,  // measure 79
0100
0000
0010
1000
0010
1000
0020
0030
0000
0000
0010
0100
0010
0100
0020
0030
,  // measure 80
0000
0000
1000
0100
0010
0001
0020
0030
0000
0000
0001
0010
0100
1000
0200
0300
,  // measure 81
2000
0000
0000
0000
0000
0000
0000
0000
0000
0000
0000
3000
0001
0000
0100
0000
,  // measure 82
0010
0000
1000
0000
0001
0000
0010
0000
0100
0000
1000
0000
0001
0000
0100
0010
,  // measure 83
0100
0010
1000
0001
0100
0010
1000
0001
,  // measure 84
0010
0000
0100
0000
1000
0000
0001
0000
0200
0000
0000
0000
0000
0000
0000
0300
,  // measure 85
0002
0000
0003
1000
0010
1000
0010
0000
0100
0000
0001
0000
0200
0300
0000
0000
,  // measure 86
2000
0000
3000
0001
0100
0001
0100
0000
0010
0000
1000
0000
0020
0030
0000
0000
,  // measure 87
2000
0000
3000
0000
0010
0100
0010
1000
0010
0100
0001
0010
0100
1000
0100
0010
,  // measure 88
0100
0000
0010
0001
0100
0010
0001
0010
1000
0010
0100
0001
0010
0100
1000
0010
,  // measure 89
0001
0001
1000
1000
0001
0100
1000
1000
,  // measure 90
0100
0010
0100
0100
0001
0100
0010
0010
,  // measure 91
1000
0100
0001
0001
0100
0010
0001
0001
,  // measure 92
1000
0010
0100
0100
0010
1000
0001
0001
,  // measure 93
0100
0010
1000
1000
0100
0010
0001
0001
,  // measure 94
0100
0010
1000
1000
0010
0100
1000
1000
,  // measure 95
0100
0001
0100
0100
0010
1000
0001
0001
,  // measure 96
0100
0010
1000
1000
0100
1000
0010
0010
,  // measure 97
1000
0001
0100
0100
0010
0001
0010
0100
,  // measure 98
0000
0000
0100
0100
0010
0001
0010
0100
,  // measure 99
0000
0000
0010
0010
0100
1000
0100
0010
,  // measure 100
0000
0000
1000
1000
0100
0010
0100
1000
,  // measure 101
0100
0001
1000
1000
0001
0100
1000
1000
,  // measure 102
0100
0010
0100
0100
0001
0100
0010
0010
,  // measure 103
1000
0100
0001
0001
0100
0010
0001
0001
,  // measure 104
1000
0010
0100
0100
0010
1000
0001
0001
,  // measure 105
0100
0010
1000
1000
0100
0010
0100
1000
,  // measure 106
0000
0000
0100
0100
0010
0001
0010
0100
,  // measure 107
0000
0000
0001
0001
0010
0100
0010
0001
,  // measure 108
0000
0000
0010
0010
0100
1000
0100
0010
,  // measure 109
0202
0000
0000
0000
,  // measure 110
0000
0000
0000
0000
0000
0000
0000
0303
,  // measure 111
2020
0000
0000
0000
0000
0000
0000
3030
,  // measure 112
0022
0000
0000
0033
,  // measure 113
2002
0000
0000
0000
,  // measure 114
0000
0000
0000
0000
0000
0000
0000
3003
,  // measure 115
2200
0000
0000
0000
0000
0000
0000
3300
,  // measure 116
0010
0100
0010
0100
0010
0100
0010
0100
0010
0100
0010
0100
0010
0000
0000
0000
,  // measure 117
2002
0000
0000
0000
,  // measure 118
0000
0000
0000
0000
0000
0000
0000
3003
,  // measure 119
2200
0000
0000
0000
0000
0000
0000
3300
,  // measure 120
0022
0000
0000
0000
0000
0000
0000
0033
,  // measure 121
2002
0000
0000
0000
,  // measure 122
0000
0000
0000
0000
0000
0000
0000
3003
,  // measure 123
2200
0000
0000
0000
0000
0000
0000
3300
,  // measure 124
1010
0101
1001
1010
0101
0011
0110
2002
,  // measure 125
0000
0000
0000
3003
0220
0330
0202
0000
0000
0000
0000
0303
2020
3030
2002
0000
,  // measure 126
0000
3003
0010
0000
0100
0010
0100
0000
0010
0000
0100
0000
0010
0100
0010
0000
,  // measure 127
0100
0000
0010
0000
0100
0010
0200
0000
0000
0000
0000
0000
0000
0300
1001
0000
,  // measure 128
1010
0000
0011
0000
0110
0000
2002
0000
0000
0000
3003
0000
0022
0033
0220
0000
,  // measure 129
0000
0000
0330
0000
0202
0303
1000
0000
0100
0000
1000
0000
0100
0000
0010
0000
,  // measure 130
0001
0010
0001
1000
0010
1000
0010
0100
,  // measure 131
0001
0200
0300
1001
0101
1010
1001
0220
,  // measure 132
0000
0000
0000
0330
2002
3003
2020
0000
0000
0000
0000
3030
0022
0033
0100
0000
,  // measure 133
0001
0100
0010
1000
0100
0010
0100
1000
,  // measure 134
0100
0010
0001
1000
0100
0010
0001
1010
,  // measure 135
1001
0000
0110
0000
0011
0000
2002
0000
0000
0000
0000
3003
2020
3030
2200
0000
,  // measure 136
0000
0000
0000
3300
0022
0033
0010
0000
0010
0000
0010
0000
0010
0000
0010
0000
,  // measure 137
0010
0010
0010
0010
0010
0010
0010
0020
,  // measure 138
0000
0000
0000
0000
0000
0030
1001
0000
1100
0000
0101
0000
1010
0000
2002
0000
,  // measure 139
0000
0000
0000
3003
2200
3300
0202
0000
0000
0000
0000
0303
2002
3003
0202
0000
,  // measure 140
0000
0303
0010
0000
1000
0010
1000
0000
0010
0000
1000
0000
0010
1000
0010
0000
,  // measure 141
1000
0000
0010
0000
1000
0010
1000
0000
0010
0000
1000
0000
0010
1000
0020
0000
,  // measure 142
0000
0000
0000
0030
0000
0000
0200
0000
0000
0000
0000
0000
0300
0000
0000
2000
0000
0000
0000
3000
0000
0002
0000
0000
,  // measure 143
0000
0000
0000
0000
0000
0000
0003
0020
,  // measure 144
0000
0000
0000
0030
0000
0000
2000
0000
0000
0000
0000
0000
3000
0000
0000
0002
0000
0000
0000
0003
0000
0200
0000
0000
,  // measure 145
0000
0000
0000
0000
0000
0000
0000
0000
0000
0000
0000
0000
0000
0300
2000
0000
,  // measure 146
0000
0000
0000
3000
0002
0000
0000
0000
0000
0003
0200
0000
0000
0300
0020
0000
,  // measure 147
0000
0000
0000
0000
0000
0000
0000
0000
0000
0000
0000
0000
0000
0030
0002
0000
,  // measure 148
0000
0000
0000
0003
0200
0000
0000
0000
0000
0300
0020
0000
0000
0030
0200
0000
,  // measure 149
0000
0000
0000
0000
0000
0000
0000
0000
0000
0000
0000
0000
0000
0300
0020
0000
,  // measure 150
0000
0000
0000
0030
2000
0000
0000
0000
0000
3000
0002
0000
0000
0003
0200
0000
,  // measure 151
0000
0000
0000
0000
0000
0000
0000
0000
0000
0000
0000
0000
0000
0300
0020
0000
,  // measure 152
0000
0000
0000
0030
2000
0000
0000
0000
0000
3000
0002
0000
0000
0003
0200
0000
,  // measure 153
0000
0000
0000
0000
0000
0000
0000
0000
0000
0000
0000
0000
0000
0300
0020
0000
,  // measure 154
0000
0000
0000
0030
0002
0000
0000
0000
0000
0003
0020
0000
0000
0030
2000
0000
,  // measure 155
0000
0000
0000
0000
0000
0000
0000
0000
0000
0000
0000
0000
0000
3000
0200
0000
,  // measure 156
0000
0000
0000
0300
0002
0000
0000
0000
0000
0003
0020
0000
0000
0030
2000
0000
,  // measure 157
0000
0000
0000
0000
0000
3000
0002
0000
0000
0003
0200
0000
0000
0300
0010
0000
,  // measure 158
0100
0001
0001
0010
0100
1000
1000
0001
,  // measure 159
0100
0010
0010
1000
0100
0010
0010
0001
,  // measure 160
0100
0001
0001
1000
0010
0100
0100
2002
,  // measure 161
0000
3003
0000
2222
0000
0000
0000
0000
,  // measure 162
0000
0000
0000
0000
,  // measure 163
0000
0000
0000
0000
,  // measure 164
0000
0000
0000
0000
,  // measure 165
0000
0000
0000
0000
,  // measure 166
0000
0000
0000
0000
,  // measure 167
0000
0000
0000
0000
0000
0000
0000
3333
;
